Try Our New BETA Version
GO
(navigation image)
Home Audio Books & Poetry | Community Audio | Computers & Technology | Grateful Dead | Live Music Archive | Music, Arts & Culture | Netlabels | News & Public Affairs | Non-English Audio | Podcasts | Radio Programs | Spirituality & Religion
Search: Advanced Search
Anonymous User (login or join us)
Upload

Listen to audio

item image
Run time: 1:53:40

Stream (help[help])

VBR M3U (Hi-Fi)
64Kbps M3U (Lo-Fi)

Play / Download (help[help])

(52.0 M)64Kbps MP3 ZIP
(151.3 M)VBR ZIP

Ogg Vorbis

Lossless zip


All Files: HTTPS Torrent (2/0)

Resources

Bookmark

Reason For LeavingReason For Leaving Live at Mr Roberts on 2008-11-16 (November 16, 2008)

something has gone horribly wrong 8-p
Prefer flash? · Embed · Questions/Feedback?


Collection: ReasonForLeaving
Band/Artist: Reason For Leaving
Date: November 16, 2008 (check for other copies)
Venue: Mr Roberts
Location: Madison WI USA

Source: Zoom H2 Handy Recorder (internal mics at 90 degrees) > WAV @16-bit 48KHz
Lineage: WAV > Audacity 1.2.6a (Tracking in 1/75 second increments & triangle dither to 16-bit) > AIFF > xACT 1.64 > FLAC level 8
Taped by: TAS aka morst
Transferred by: TAS aka morst
Keywords: Live Concert; Benefit for Alex "Big Al" Black; audience recording


Description

01. sound checkin - crowd sound
02. banter - win a dream date
03. intro - celebrate the life of BIG AL!
04. Wetter
05. Garden Grove
06. Bad Fish
07. Let's Go Get Stoned
08. Burritos
09. Freedom
10. banter - dos high life please
11. Smoke Two Joints
12. War Pigs
13. Don't Push
14. Dwarves And Midgets
15. 54-46 Was My Number
16. Wrong Way
17. banter - a big glass of water for Adam
18. Same In The End
19. Pawn Shop
20. DJ's
21. Caress Me Down
22. Bitch Sticks

Notes

Reason For Leaving
aka Jose & Sumlimes
Sunday, November 16, 2008
Madison WI USA
Mr Roberts

Benefit for the family of Alex "Big Al" Black
also featuring Copper Still Foundry, Roast Beef

Source:
Zoom H2 internal mics at 90 degrees (on top of heater at back of dance floor, wedged against ceiling) > WAV @24bit/48KHz

Transfer:
WAV > Audacity 1.2.6a > AIFF's > xACT1.64 > FLAC


Disc 1 (54:36.63)
Disc 2 (59:02.33)

SHNTOOL:
length expanded size cdr WAVE problems fmt ratio filename
3:45.08 39708860 B --- -- ---xx RFL2008-11-16d1t01.flac
13:10.30 139426604 B --- -- ---xx RFL2008-11-16d1t02.flac
2:25.68 25737980 B --- -- ---xx RFL2008-11-16d1t03.flac
4:58.50 52684844 B --- -- ---xx RFL2008-11-16d1t04.flac
5:09.24 54564092 B --- -- ---xx RFL2008-11-16d1t05.flac
3:12.40 33962924 B --- -- ---xx RFL2008-11-16d1t06.flac
5:44.10 60705164 B --- -- ---xx RFL2008-11-16d1t07.flac
4:25.47 46856588 B --- -- ---xx RFL2008-11-16d1t08.flac
6:32.73 69320540 B --- -- ---xx RFL2008-11-16d1t09.flac
0:54.55 9655004 B --- -- ---xx RFL2008-11-16d1t10.flac
4:17.33 45412460 B --- -- ---xx RFL2008-11-16d1t11.flac
9:32.08 100919660 B --- -- ---xx RFL2008-11-16d2t01.flac
7:22.36 78053516 B --- -- ---xx RFL2008-11-16d2t02.flac
7:02.14 74473772 B --- -- ---xx RFL2008-11-16d2t03.flac
6:20.40 67126124 B --- -- ---xx RFL2008-11-16d2t04.flac
3:04.40 32551724 B --- -- ---xx RFL2008-11-16d2t05.flac
1:44.53 18470300 B --- -- ---xx RFL2008-11-16d2t06.flac
3:33.18 37615580 B --- -- ---xx RFL2008-11-16d2t07.flac
4:50.46 51264236 B --- -- ---xx RFL2008-11-16d2t08.flac
4:44.69 50259932 B --- -- ---xx RFL2008-11-16d2t09.flac
4:12.69 44615132 B --- -- ---xx RFL2008-11-16d2t10.flac
6:34.15 69536924 B --- -- ---xx RFL2008-11-16d2t11.flac
113:39.21 1202921960 B 0.5001 (22 files)

-=-=-=-=-=-=-=-=-=-=-=-=-=-=-=-=-=-=-=-=-=-=-=-=-
Soundscape Preservation Society Founded 1991
http://www.iamtypingwithonefinger.com/SPS.html
-=-=-=-=-=-=-=-=-=-=-=-=-=-=-=-=-=-=-=-=-=-=-=-=-

Individual Files

Whole Item FormatSize
RFL2008-11-16.BigAl_64kb.m3u 64Kbps M3U Stream 
RFL2008-11-16.BigAl_64kb_mp3.zip 64Kbps MP3 ZIP 52.0 MB 
RFL2008-11-16.BigAl_vbr.m3u VBR M3U Stream 
RFL2008-11-16.BigAl_vbr_mp3.zip VBR ZIP 151.3 MB 
[generated VBR MP3 ZIP] VBR MP3 ZIP Stream 
[generated 64Kbps MP3 ZIP] 64Kbps MP3 ZIP Stream 
Audio Files Flac VBR MP3 Ogg Vorbis PNG 64Kbps MP3
sound checkin - crowd sound 13.7 MB 
4.8 MB 
2.6 MB 
9.2 KB 
1.7 MB 
banter - win a dream date 48.8 MB 
16.6 MB 
9.3 MB 
10.2 KB 
6.0 MB 
intro - celebrate the life of BIG AL! 8.8 MB 
3.2 MB 
1.7 MB 
6.7 KB 
1.1 MB 
Wetter 27.1 MB 
7.0 MB 
3.8 MB 
10.8 KB 
2.3 MB 
Garden Grove 25.8 MB 
6.9 MB 
3.8 MB 
10.4 KB 
2.4 MB 
Bad Fish 16.9 MB 
4.3 MB 
2.3 MB 
10.0 KB 
1.5 MB 
Let's Go Get Stoned 29.2 MB 
7.6 MB 
4.2 MB 
10.4 KB 
2.6 MB 
Burritos 25.0 MB 
6.0 MB 
3.3 MB 
10.2 KB 
2.0 MB 
Freedom 37.0 MB 
9.0 MB 
4.9 MB 
10.8 KB 
3.0 MB 
banter - dos high life please 3.4 MB 
1.2 MB 
663.9 KB 
7.0 KB 
428.3 KB 
Smoke Two Joints 22.9 MB 
5.7 MB 
3.1 MB 
10.4 KB 
2.0 MB 
War Pigs 51.5 MB 
12.3 MB 
7.0 MB 
11.1 KB 
4.4 MB 
Don't Push 40.4 MB 
9.9 MB 
5.5 MB 
10.4 KB 
3.4 MB 
Dwarves And Midgets 38.6 MB 
9.3 MB 
5.2 MB 
10.3 KB 
3.2 MB 
54-46 Was My Number 36.3 MB 
8.6 MB 
4.7 MB 
11.0 KB 
2.9 MB 
Wrong Way 15.9 MB 
4.2 MB 
2.3 MB 
9.3 KB 
1.4 MB 
banter - a big glass of water for Adam 6.8 MB 
2.3 MB 
1.2 MB 
10.5 KB 
818.9 KB 
Same In The End 20.3 MB 
4.7 MB 
2.6 MB 
10.0 KB 
1.6 MB 
Pawn Shop 25.3 MB 
6.5 MB 
3.5 MB 
10.4 KB 
2.2 MB 
DJ's 23.7 MB 
6.3 MB 
3.5 MB 
10.2 KB 
2.2 MB 
Caress Me Down 21.9 MB 
5.7 MB 
3.1 MB 
10.7 KB 
1.9 MB 
Bitch Sticks 34.5 MB 
8.6 MB 
4.8 MB 
10.2 KB 
3.0 MB 
Image Files JPEG JPEG Thumb
Poster 148.5 KB 
3.7 KB 
Information FormatSize
RFL2008-11-16-flac16.ffp Flac FingerPrint 1.2 KB 
RFL2008-11-16.BigAl.ffp Flac FingerPrint 1.2 KB 
RFL2008-11-16.BigAl.md5 Checksums 1.2 KB 
RFL2008-11-16-flac16.md5 Checksums 1.2 KB 
RFL2008-11-16.BigAl_files.xml Metadata [file] 
RFL2008-11-16.BigAl_meta.xml Metadata 6.8 KB 
RFL2008-11-16.BigAl_reviews.xml Metadata 183.0 B 
Other Files Text Archive BitTorrent
informative textfile 4.8 KB 
RFL2008-11-16.BigAl_archive.torrent 49.6 KB 

Be the first to write a review
Downloaded 464 times
Reviews


Terms of Use (31 Dec 2014)